Skip to main content

The Alchemystics Live at Camp Kee-Wamee on 2013-09-14

Audio Preview

etree
The Alchemystics Live at Camp Kee-Wamee on 2013-09-14


Topics Wormfest 2013


The Alchemystics
2013-09-14
Wormtown Music Festival
Camp KeeWanee
Greenfield, MA
Main Stage

DPA 4011 > V3 Digital + SBD > DR680 (24/48)
SDHC Card > Sound Forge Pro 10.0 (Mix, Normalize, Fades, resample iZotope 64-Bit SRC, dither iZotope MBIT+ Dither) > CD Wav (tracking) > TLH > Flac (level 8)
TS at front corner of FOH (ROC)/ORTF/approx. 8' high

Taped and Transferred by Brian V.

01. Track 01
02. Thinkin Bout You >
03. She Goes
04. Amazing
05. Good For You
06. Sparkle Pimp >
07. Track 07
08. Everyday People >
09. Spread Hope
10. Let We In >
11. Track 11
12. Nothing to Hide
13. Shine I
14. Elements
15. contest banter
16. Fire
17. Track 17


Collection TheAlchemystics
Band/Artist The Alchemystics
Venue Camp Kee-Wamee
Location Greenfield, MA

Source DPA 4011 > V3 Digital + SBD > DR680 (24/48)
Lineage SDHC Card > Sound Forge Pro 10.0 (Mix, Normalize, Fades, resample iZotope 64-Bit SRC, dither iZotope MBIT+ Dither) > CD Wav (tracking) > TLH > Flac (level 8)
Taped by Brian V.
Transferred by Brian V.

Notes

the band left the stage and came back for an encore. I edited out the banter between. fades were applied at the end and beginning.

Thanks to everyone that put Wormtown Music Festival together and for the tapers spot.
***Support Bands That Allow Taping/Trading***

shntool output
length expanded size cdr WAVE problems fmt ratio filename
6:05.70 64550684 B --- -- ---xx flac 0.5195 alchemystics2013-09-14s1t01.flac
6:02.13 63887420 B --- -- ---xx flac 0.5451 alchemystics2013-09-14s1t02.flac
7:13.26 76442396 B --- -- ---xx flac 0.5264 alchemystics2013-09-14s1t03.flac
5:19.56 56403356 B --- -- ---xx flac 0.5336 alchemystics2013-09-14s1t04.flac
5:32.11 58590716 B --- -- ---xx flac 0.5328 alchemystics2013-09-14s1t05.flac
7:35.30 80332604 B --- -- ---xx flac 0.5679 alchemystics2013-09-14s1t06.flac
5:31.23 58442540 B --- -- ---xx flac 0.5462 alchemystics2013-09-14s1t07.flac
6:04.67 64367228 B --- -- ---xx flac 0.5638 alchemystics2013-09-14s1t08.flac
6:14.71 66140636 B --- -- ---xx flac 0.6046 alchemystics2013-09-14s1t09.flac
4:42.21 49794236 B --- -- ---xx flac 0.5823 alchemystics2013-09-14s1t10.flac
3:24.46 36093836 B --- -- ---xx flac 0.5281 alchemystics2013-09-14s1t11.flac
4:51.54 51459452 B --- -- ---xx flac 0.5435 alchemystics2013-09-14s1t12.flac
4:41.41 49664876 B --- -- ---xx flac 0.5719 alchemystics2013-09-14s1t13.flac
5:17.05 55930604 B --- -- ---xx flac 0.5562 alchemystics2013-09-14s1t14.flac
0:52.17 9212828 B --- -- ---xx flac 0.4292 alchemystics2013-09-14s1t15.flac
4:14.51 44925596 B --- -- ---xx flac 0.5646 alchemystics2013-09-14s1t16.flac
5:31.11 58414316 B --- -- ---xx flac 0.5830 alchemystics2013-09-14s1t17.flac
89:15.13 944653324 B 0.5533 (17 files)

comment
Reviews

There are no reviews yet. Be the first one to write a review.
DOWNLOAD OPTIONS
Uploaded by
Brian V.
on 10/12/2013
Views
39
SIMILAR ITEMS (based on metadata)
eye
Title
Date Archived
Creator
The Alchemystics
by The Alchemystics
etree
eye 20
favorite 0
comment 0
Source: DPA 4011 > V3 Digital + SBD > DR680 (24/48)
The Alchemystics
by The Alchemystics
etree
eye 166
favorite 0
comment 0
Source: AKG 392> mini-me + SB > R-44
The Alchemystics
by The Alchemystics
etree
eye 34
favorite 0
comment 0
Source: source1: akg 482 (3' split) > Lunatec V2 > Edirol R-44 > WAV (24/48k), source2: sbd > Edirol R-44 > WAV (24/48k)
The Alchemystics
by The Alchemystics
etree
eye 103
favorite 0
comment 0
Source: OTC/@FOB/ROC; mics@~12ft > MBHO603/ka200n (ortf) > V3 (digital) >Tascam DR680 (48/24) + AKGc460b/ck63 (din) > Busman mod Tascam DR680
The Alchemystics
by The Alchemystics
etree
eye 264
favorite 0
comment 0
Source: source1: akg 481 > V2 > r-44 > WAV (24/48k), source2: sbd > r-44 > WAV (24/48k)
The Alchemystics
by The Alchemystics
etree
eye 90
favorite 0
comment 0
Source: source1: akg 482 (3' split) > Lunatec V2 > Edirol R-44 > WAV (24/48k), source2: sbd > Edirol R-44 > WAV (24/48k)
The Alchemystics
by The Alchemystics
etree
eye 29
favorite 1
comment 0
Source: akg391>R44 + sbd>R44 @ 2444
The Alchemystics
by The Alchemystics
etree
eye 491
favorite 1
comment 1
favoritefavoritefavoritefavoritefavorite ( 1 reviews )
Source: Matrix Mix nak300> + sbd>busman R4@2448
The Alchemystics
by The Alchemystics
etree
eye 313
favorite 0
comment 0
Source: Zoom H4 internal mics > WAV (44.1) > USB > Audacity (amplified & cut) > WAV > xACT > flac8
The Alchemystics
by The Alchemystics
etree
eye 140
favorite 0
comment 0
Source: OTS@FOB/~15'ROC/mics @ ~11' > MBHO603/ka200n (nos) > Tascam DR680 (Busman Mod;48/24)